Tracklistings :: Essential Mix
   | User PanelNewsForumEssential Mix May 26, 2022  
 Tracklistings
 Listings from 1993
 Listings from 1994
 Listings from 1995
 Listings from 1996
 Listings from 1997
 Listings from 1998
 Listings from 1999
 Listings from 2000
 Listings from 2001
 Listings from 2002
 Listings from 2003
 Listings from 2004
 Listings from 2005
 Listings from 2006
 Listings from 2007
 Listings from 2008
 Listings from 2009
 Donate
There have been 24 donations since 10th Aug. 2003, final amount 627.60€. Thank you!

 Information
Welcome to this site, here you can find the Radio One Essential Mix archives, ever since 1993 when it first broadcasted, up until today, and for the future. In time there will be features added for "artist in residence" which will be a profile of a DJ/Producer we will pick each month, and give you information about them and what they are doing now.

The page is updated by atleast a few people, so it is always up to date.
The Essential Mix Archives (search tracks | latest comments | highest rated)

1993 / 1994 / 1995 / 1996 / 1997 / 1998 / 1999 / 2000 / 2001 / 2002 / 2003 / 2004 / 2005 / 2006 / 2007 / 2008 / 2009 / ...

Pages: 1 2 3 4 5 6 7 8 9 10 11 12 13 14 15 16 17 18 19 20 21 22 23 24 25 26 27 28 29 30 31 32 33 34 35 36 37 38 39 40 41 42 43 44 45 46 47 48 49 50 51 52 53 54 55 56 57 58 59 60 61 62 63 64 65 66 67 68 69 70 71 72 73 74 75 76 77 78 79 80 81 82 83 84 85 86 87 88 89 90 91 92 93 94 95 96 97 98 99 100 101 102 103 104 105 106 107 108 109 110 111 112 113 114 115 116 117 118 119 120 121 122 123 124 125 126 127 128 129 130 131 132 133 134 135 136 137 138 139 140 141 142 143 144 145 146 147 148 149 150 151 152 153 154 155 156 157 158 159 160 161 162 163 164 165 166 167 168 169 170 171 172 173 174 175 176 177 178 179 180 181 182 183 184 185 186 187 188 189 190 191 192 193 194 195 196 197 198 199 200 201 202 203 204 205 206 207 208 209 210 211 212 213 214 215 216 217 218 219 220 221 222 223 224 225 226 227 228 229 230 231 232 233 234 235 236 237 238 239 240

The 20 comments on this page:

 whalefish writes: [ 2006-01-08 - Francois Kevorkian ]
The part 2 of the mix is better than the longer first part.The variety at end is the part I wanted to hear more of...not the even tempoed first part.
[ Posted on 2006-04-10 04:22:57 ]

 whalefish writes: [ 2005-12-18 - DJ Hell ]
Above mediocre, however alot of the tracks have been used by other artists. There are better mixes of a similar style.
[ Posted on 2006-04-10 04:19:52 ]

 whalefish writes: [ 2006-03-05 - Alex Smoke ]
At the worst this mix is too subtle, at the best rythmicly hypnotic. A nice mix from someone new.
[ Posted on 2006-04-10 04:17:18 ]

 whalefish writes: [ 2005-12-04 - Erol Alkan ]
I like the noise, though I would say it took a couple listens to get into. A great and unique mix...
[ Posted on 2006-04-10 04:14:21 ]

 rogue ldr writes: [ 2006-02-05 - Layo and Bushwacka ]
good stuff. mellow in the beginning but it picks up the pace around the 30-40 minute mark.
[ Posted on 2006-04-09 19:38:09 ]

 rogue ldr writes: [ 2006-01-08 - Francois Kevorkian ]
this mix just about put me to sleep. if it were any more minimal or boring, i would've regressed in age.
[ Posted on 2006-04-09 19:36:52 ]

 rogue ldr writes: [ 1994-12-11 - Massive Attack ]
isn't the track after "god lives through" by a tribe called quest "a night's interlude" by nightmares on wax?
[ Posted on 2006-04-09 19:18:26 ]

 Wesley FM writes: [ 2004-03-21 - DJ Marky and XRS ]
Viva Djs Brasileiros!!!!
[ Posted on 2006-04-08 01:24:37 ] [email]

 worlddude writes: [ 2001-09-16 - Victor Calderone ]
Great mix! I especially like the first track -the unknown one . Deep-, Dark-, NYC-, Tribalmix.
[ Posted on 2006-04-07 19:58:26 ] [email]

 madgoose writes: maximum grill up [ 2006-03-26 - Desyn Masiello, Demi and Omid 16b aka SOS ]
i agree with matrix: there were some sections of this mix that really got me rocking, but there was the odd moment where my attention waned... definitely a marked improvement on recent weeks though it must be said
[ Posted on 2006-04-07 18:08:56 ] [homepage]

 Jonas writes: The cue Sheet [ 2004-08-29 - Deep Dish, Live at Creamfields ]
-TITLE "Live at Creamfields UK 2004"
PERFORMER "Deep Dish"
FILE "Deep Dish - Creamfields 2004 - Essential Mix.mp3" MP3
TRACK 01 AUDIO
TITLE "I Love You (Serial Killer)"
PERFORMER "Toni Rojas & Marcos Cruz"
INDEX 00 00:00:00
TRACK 02 AUDIO
TITLE "Love Song (Skylark Mix) (Illustrious)"
PERFORMER "Syntax"
INDEX 01 07:48:00
TRACK 03 AUDIO
TITLE "Fly Life vs. Music Is The Answer (White)"
PERFORMER "Basement Jaxx vs. Danny Tenaglia Bootleg"
INDEX 01 15:35:00
TRACK 04 AUDIO
TITLE "Stormy Dance (Tommy Boy Remix)"
PERFORMER "Deep Dish vs. The Doors"
INDEX 01 21:41:00
TRACK 05 AUDIO
TITLE "Flash Dance (Raul Riconi Remix) (Positiva)"
PERFORMER "Deep Dish"
INDEX 01 27:16:00
TRACK 06 AUDIO
TITLE "Adventures Of Cronas EP"
PERFORMER "Filipe & Nicholas Bacher"
INDEX 01 34:16:00
TRACK 07 AUDIO
TITLE "Unknown"
PERFORMER "Dylan Rhymes"
INDEX 01 39:39:00
TRACK 08 AUDIO
TITLE "Bad Magic"
PERFORMER "London Residents"
INDEX 01 45:40:00
TRACK 09 AUDIO
TITLE "Unknown (Tronic)"
PERFORMER "Valentino Kanzyani"
INDEX 01 50:56:00
TRACK 10 AUDIO
TITLE "4 Da Underground (Off the Wish EP)"
PERFORMER "Cronix"
INDEX 01 54:40:00
TRACK 11 AUDIO
TITLE "Greece 2004 (Chus Remix)"
PERFORMER "Three Drives"
INDEX 01 63:40:30
TRACK 12 AUDIO
TITLE "Unknown (White)"
PERFORMER "Chus & Cebalos"
INDEX 01 69:39:00
TRACK 13 AUDIO
TITLE "Don't Stop, Go (Little Mountain)"
PERFORMER "Hydroponix"
INDEX 01 77:58:00
TRACK 14 AUDIO
TITLE "Song 2 (Tim Deluxe Mix)"
PERFORMER "Blur"
INDEX 01 83:40:00
TRACK 15 AUDIO
TITLE "Flashdance (David Guetta Mix) (Positiva)"
PERFORMER "Deep Dish"
INDEX 01 89:29:00
TRACK 16 AUDIO
TITLE "Owner Of A Lonely Heart (Armin Van Buuren Mix)"
PERFORMER "Yes"
INDEX 01 96:21:00
TRACK 17 AUDIO
TITLE "Let's Get Ill' (Armin Van Burren Mix)"
PERFORMER "P. Diddy"
INDEX 01 103:45:00
TRACK 18 AUDIO
TITLE "Say Hello"
PERFORMER "Deep Dish"
INDEX 01 110:36:00
[ Posted on 2006-04-07 12:36:35 ] [email]

 Nightreaver writes: [ 1998-07-12 - Deep Dish ]
> his e-mix made me into a deep dish fan

me too, this has to be one of my fav essentail mixes
[ Posted on 2006-04-05 21:27:42 ] [homepage]

 Coruco writes: Asi Es Kara...!!! [ 2006-03-19 - James Holden ]
Es un set bien trankilote pero muy bueno, ese pendejo que siempre anda poniendo sus estupideces neta que no se ni que chingados piensa, que al wei le guste musica estilo golosa o de los temerarios version remix pos es muy supedo pero el set (el de los dos) estubieron muy buenos realmente, no es lo maximo ni el we descubrio el hilo negro vdd pero si no es para que les pongas un 1.
Simplemente un saludo pa el chatito Nevarez (pa variar) que sigue aia organizando marchas en auroro Il. a favor de la gente inmigrante Y NO SE LE OLVIDE QUE ACA TIENE A SU HERMANO que lo extra├▒a mucho.
[ Posted on 2006-04-03 03:53:00 ] [email]

 matrix writes: [ 2003-08-10 - Judge Jules, Live from Eden, Ibiza ]
This mix was not that bad in terms of track selection, I think his twattish reputation puts people off listening. Not one I'll go back to though.
[ Posted on 2006-04-02 22:33:01 ] [email]

 Burkey writes: Brilliant [ 2006-03-26 - Desyn Masiello, Demi and Omid 16b aka SOS ]
Really enjoyed this.

Anyone got any idea what the tune coming in around the 100 minute mark is ?
[ Posted on 2006-04-02 14:22:55 ] [homepage]

 matrix writes: [ 2003-08-10 - Paul Oakenfold, Live from Amnesia, Ibiza ]
distinctly unimpressive!
[ Posted on 2006-04-02 13:57:32 ] [email]

 matrix writes: [ 2006-03-26 - Desyn Masiello, Demi and Omid 16b aka SOS ]
A good mix, though I found myself tuning in and out a bit - the mix is a bit too constantly on the same theme for my tastes.

The genre-bashing conversation going on above is a bit ridiculous. It's like slating you for your favourite colour. I've always thought that marks of 1 on this site are mostly to be ignored (and often 10/10's are slung around too freely as well). This kind of marking always seem to be based upon which genre the author likes.
[ Posted on 2006-04-02 13:08:13 ] [email]

 nazgul writes: [ 2004-02-08 - Ferry Corsten ]
First 30 min of the mix are perfect
[ Posted on 2006-03-31 14:54:25 ] [homepage] [email]

 synkboy writes: [ 2006-03-26 - Desyn Masiello, Demi and Omid 16b aka SOS ]
This is an across the board house mix,shifting from funky to pumping house effortlessly with sublime mixing,programming and has a good dancefloor sound.

Holden and Fake was uninteresting,bland,and I cannot imagine anyone wanting to hear it in a club except for you idiots.

Make sure you don't hurt yourself when you fall off the minimal bandwagon kids.
[ Posted on 2006-03-30 21:04:35 ] [email]

 oggie writes: [ 2006-03-26 - Desyn Masiello, Demi and Omid 16b aka SOS ]
Strangely engough that was the responce i expected from synkboy and i can say the same thing about you for the Nathan Fake and James Holden one.
[ Posted on 2006-03-30 08:47:56 ] [email]

 User's Login
Username:

Password:

Don't have an account yet? You can create one. As a registered user you have some advantages like a theme manager, comments configuration and posting comments with your name.
 System Uptime
The system has been up for the last 376 days and has been idle 2755 of those days.
 Chat Box
If you want to chat with the people currently visiting the site, please click popup to open a seperate window, where the contents of the chat are refreshed every 30 seconds, or per your demand.
 Last 5 registered users
 wowclassicgold3
 wazzler
 neelam112
 tickles23
 piperuk
 Currently Online
1 Guest
 


All logos and trademarks in this site are property of their respective owners.
The author materials are property of their posters. The rest © Twilight ::
This page has got 37276374 pageloads since 2002-02-09.
GZIP Compression of the site is turned OFF.
Page generated in 0.04 seconds using 38 SQL queries and including 32 files.