Tracklistings :: Essential Mix
   | User PanelNewsForumEssential Mix May 24, 2022  
 Tracklistings
 Listings from 1993
 Listings from 1994
 Listings from 1995
 Listings from 1996
 Listings from 1997
 Listings from 1998
 Listings from 1999
 Listings from 2000
 Listings from 2001
 Listings from 2002
 Listings from 2003
 Listings from 2004
 Listings from 2005
 Listings from 2006
 Listings from 2007
 Listings from 2008
 Listings from 2009
 Donate
There have been 24 donations since 10th Aug. 2003, final amount 627.60€. Thank you!

 Information
Welcome to this site, here you can find the Radio One Essential Mix archives, ever since 1993 when it first broadcasted, up until today, and for the future. In time there will be features added for "artist in residence" which will be a profile of a DJ/Producer we will pick each month, and give you information about them and what they are doing now.

The page is updated by atleast a few people, so it is always up to date.
The Essential Mix Archives (search tracks | latest comments | highest rated)

1993 / 1994 / 1995 / 1996 / 1997 / 1998 / 1999 / 2000 / 2001 / 2002 / 2003 / 2004 / 2005 / 2006 / 2007 / 2008 / 2009 / ...

Pages: 1 2 3 4 5 6 7 8 9 10 11 12 13 14 15 16 17 18 19 20 21 22 23 24 25 26 27 28 29 30 31 32 33 34 35 36 37 38 39 40 41 42 43 44 45 46 47 48 49 50 51 52 53 54 55 56 57 58 59 60 61 62 63 64 65 66 67 68 69 70 71 72 73 74 75 76 77 78 79 80 81 82 83 84 85 86 87 88 89 90 91 92 93 94 95 96 97 98 99 100 101 102 103 104 105 106 107 108 109 110 111 112 113 114 115 116 117 118 119 120 121 122 123 124 125 126 127 128 129 130 131 132 133 134 135 136 137 138 139 140 141 142 143 144 145 146 147 148 149 150 151 152 153 154 155 156 157 158 159 160 161 162 163 164 165 166 167 168 169 170 171 172 173 174 175 176 177 178 179 180 181 182 183 184 185 186 187 188 189 190 191 192 193 194 195 196 197 198 199 200 201 202 203 204 205 206 207 208 209 210 211 212 213 214 215 216 217 218 219 220 221 222 223 224 225 226 227 228 229 230 231 232 233 234 235 236 237 238 239 240

The 20 comments on this page:

 Sly Guy writes: [ 2005-04-24 - DJ Tiesto, Live from Disneyland Paris ]
I'd rate this, but my progression of listening to this set was as follows.
1. Listened to the first 15 mins
2. Decided I didn't like the current tune, skipped ahead about 5 mins
3. Decided I didn't like that tune, skipped ahead 15.
4. didn't like that tune, decided to skip ahead to where traditionally the best tracks are played. [20 mins left and the last track]
5. Didn't like those, sent the mix to my archive never to be heard again.

Sorry Tij fans, he's crap. Even if you do like the cheese of trance you can find a better DJ than him.
[ Posted on 2005-05-15 01:37:36 ] [email]

 Sly Guy writes: [ 2005-01-30 - Pete Heller ]
For the first hour and a half I was ready to claim this as one of the best mixes I'd heard in a long time. The set had a huge seamless progression from the housey-electro of peace division to the crazy driving techno later on, but it completely fell apart at the end.

Why oh why did he ruin a spectacular mix!
[ Posted on 2005-05-15 01:32:35 ] [email]

 nazgul writes: mix [ 2005-03-27 - Gabriel & Dresden, Live from Miami WMC ]
very good tracklist. I'd say awesome. But I didn't like mixing ;(
[ Posted on 2005-05-14 23:39:49 ] [homepage] [email]

 Green writes: [ 2005-03-06 - Silicone Soul ]
Man, this mix is awesome.... First quality house... I'm @ minute 54 and till now the tracklisting is kickin'!!!
Some small problems with mixing though...
[ Posted on 2005-05-14 19:23:24 ]

 Devin writes: [ 2005-05-01 - Andy C ]
this is an great Mix from Andy C
r33l Essential :thumbsup:
[ Posted on 2005-05-14 01:22:15 ]

 Devin writes: [ 2005-05-08 - Dave Pearce, Live at Radio 1's Big Weekend, Sunderland ]
where can i downlaod this Mix ???
must have it
[ Posted on 2005-05-14 01:18:19 ]

 Devin writes: Download [ 2005-05-08 - Mauro Picotto, Live at Radio 1's Big Weekend, Sunderland ]
where can i downlaod this Mix ???
must have it
[ Posted on 2005-05-14 01:17:25 ]

 Jonas writes: The cue sheet [ 1994-12-18 - Paul Oakenfold ]
This is the essential goa mix cue sheet, I do it with some information of various webs, and I contrast various song that I think they were wrong.

Como mi ingles no es demasiado bueno, escribo en castellano que se me da algo mejor... este es el archivo cue que he hecho yo con lo que he encontrado en esta y otras webs.

Si encontrais algun error espero que me lo comuniqueis. Un saludo.

PERFORMER "Paul Oakenfold"
TITLE "Essential Goa Mix"
FILE "Essential Mix.wav" WAVE
TRACK 01 AUDIO
TITLE "Intro"
PERFORMER ""
INDEX 01 00:00:00
TRACK 02 AUDIO
TITLE "Give Me Life"
PERFORMER "Mr V"
INDEX 01 00:52:00
TRACK 03 AUDIO
TITLE "Skin On Skin (Orange Mix)"
PERFORMER "Grace"
INDEX 01 01:34:00
TRACK 04 AUDIO
TITLE "Point Zero"
PERFORMER "Li Kwan"
INDEX 01 08:08:00
TRACK 05 AUDIO
TITLE "De Niro (Spaceflight Mix)"
PERFORMER "Disco Evangelists"
INDEX 01 13:31:00
TRACK 06 AUDIO
TITLE "Vaporise"
PERFORMER "Virtual Symmetry"
INDEX 01 15:25:00
TRACK 07 AUDIO
TITLE "Tears In The Rain"
PERFORMER "Vangelis"
INDEX 01 20:28:00
TRACK 08 AUDIO
TITLE "Eugina (Pacific Diva Mix)"
PERFORMER "Salt Tank"
INDEX 01 22:27:50
TRACK 09 AUDIO
TITLE "LSD"
PERFORMER "Hallucinogen"
INDEX 01 23:52:00
TRACK 10 AUDIO
TITLE "Only Love Can Break Your Heart"
PERFORMER "Saint Etienne"
INDEX 01 29:46:00
TRACK 11 AUDIO
TITLE "Vampire Hunters"
PERFORMER "Wojciech Kilar"
INDEX 01 30:04:00
TRACK 12 AUDIO
TITLE "Alcatraz"
PERFORMER "Electrotete"
INDEX 01 31:03:00
TRACK 13 AUDIO
TITLE "Main Titles"
PERFORMER "Vangelis"
INDEX 01 38:30:00
TRACK 14 AUDIO
TITLE "Floor Essence"
PERFORMER "Man With No Name"
INDEX 01 39:12:00
TRACK 15 AUDIO
TITLE "Bugcatcher"
PERFORMER "Scorpio Riding"
INDEX 01 45:04:00
TRACK 16 AUDIO
TITLE "Evolution"
PERFORMER "Man With No Name"
INDEX 01 48:36:00
TRACK 17 AUDIO
TITLE "Inner City Life"
PERFORMER "Goldie"
INDEX 01 53:34:00
TRACK 18 AUDIO
TITLE "Love Remembered"
PERFORMER "Wojciech Kilar"
INDEX 01 55:08:00
TRACK 19 AUDIO
TITLE "Co-Incidence"
PERFORMER "Voodoo People"
INDEX 01 56:48:00
TRACK 20 AUDIO
TITLE "Stimuli"
PERFORMER "The Infinity Project"
INDEX 01 59:55:00
TRACK 21 AUDIO
TITLE "Wake Up! (Trance Mix)"
PERFORMER "Trance Team"
INDEX 01 64:30:00
TRACK 22 AUDIO
TITLE "Heretic Voices (Angeles Mix)"
PERFORMER "V-Tracks"
INDEX 01 67:32:00
TRACK 23 AUDIO
TITLE "Schöeneberg (Marmion Remix)"
PERFORMER "Marmion"
INDEX 01 69:50:00
TRACK 24 AUDIO
TITLE "Hierophone"
PERFORMER "Karl Biscuit"
INDEX 01 77:45:00
TRACK 25 AUDIO
TITLE "Rachel's Song"
PERFORMER "Vangelis"
INDEX 01 79:12:00
TRACK 26 AUDIO
TITLE "Sun (Oakenfold & Osborne Mix)"
PERFORMER "Virus"
INDEX 01 80:50:00
TRACK 27 AUDIO
TITLE "Deliverence"
PERFORMER "Man With No Name"
INDEX 01 88:55:00
TRACK 28 AUDIO
TITLE "Reach Up (Man With No Name Mix)"
PERFORMER "Perfecto Allstars"
INDEX 01 96:05:00
TRACK 29 AUDIO
TITLE "Song Of Liberation"
PERFORMER "Para-Dizer"
INDEX 01 101:39:00
TRACK 30 AUDIO
TITLE "Sanvean"
PERFORMER "Dead Can Dance"
INDEX 01 106:59:00
TRACK 31 AUDIO
TITLE "Eternal Spirit (Northern Mix)"
PERFORMER "4 Voices"
INDEX 01 110:24:00
TRACK 32 AUDIO
TITLE "Sugar Rush (Raw Cane Mix)"
PERFORMER "Man With No Name"
INDEX 01 114:28:00
[ Posted on 2005-05-13 23:18:35 ] [email]

 Tema writes: mistake [ 2003-03-30 - DJ Shadow ]
Track 48 75.52 - Polish Version of Hall & Oates - I Can't Go For That (No Can Do)

This is a Czech language, not Polish!
Artist is JIRI KORN
[ Posted on 2005-05-13 16:18:50 ] [email]

 matrix writes: [ 2003-06-15 - Plump DJs ]
Excellent. 8.5/10.
[ Posted on 2005-05-13 16:01:16 ] [email]

 Turn_Off writes: [ 2005-05-08 - Dave Pearce, Live at Radio 1's Big Weekend, Sunderland ]
I typically tend to stay away from trance but I listened to this (short) set without skipping a track once.

It wasn't bad, and I'm glad it was relatively short.

7/10
[ Posted on 2005-05-13 04:48:04 ]

 matrix writes: [ 2004-02-01 - DJ Touche ]
Agree with everything said above. The start (first 4 or 5 tracks) is surprisingly average considering the great stuff that follows.
[ Posted on 2005-05-12 22:29:07 ] [email]

 Sly Guy writes: [ 2005-03-06 - Silicone Soul ]
Overall good track selection, enjoyable mix. But their mixing style is a bit lacking, and the track selection is geared more towards what I'd like to hear on my computer at work instead of a night out on the town. Loving the last track tho....
[ Posted on 2005-05-12 15:26:46 ] [email]

 richy writes: Urgh! [ 2003-08-10 - Paul Oakenfold, Live from Amnesia, Ibiza ]
How can no one mention the section in the middle where he slows the tune down no end till it's over obvious and still can't get the beat right! He must have been mashed out his face!

I still listen to his mix from Sydney Australia from the time when he was good and didn't play 15 mixes of U2's back catalogue in every set.

Seems to have gone down hill since he was more bothered about releasing his own tunes.
[ Posted on 2005-05-12 12:26:56 ] [homepage]

 matrix writes: [ 2004-03-07 - Sander Kleinenberg, Live from Ultrafest, Miami ]
Good mix, though much better at the start than towards the end. Seems well thought out and inventive.
[ Posted on 2005-05-11 17:28:04 ] [email]

 onephatdj writes: [ 2005-04-17 - Layo and Bushwacka, Live from Skolbeats, Brazil ]
I don't think the 30 minutes odd these guys got gave them enough time to get into it. Shame cos I know they can do some good stuff when they get into it.
[ Posted on 2005-05-11 16:25:26 ] [homepage]

 matrix writes: [ 2004-03-14 - Rob Tissera ]
Not bad. Depends on your mood (I liked this better the first time I heard it).
[ Posted on 2005-05-11 13:42:40 ] [email]

 matrix writes: [ 2003-10-12 - Futureshock, Live from Type, London ]
This is what the live 1 hr EMs should be like, but all too rarely are. Consistently good track selection and yes, makes you want to move.
[ Posted on 2005-05-10 11:37:46 ] [email]

 nodex2001 writes: Average [ 2005-04-24 - DJ Tiesto, Live from Disneyland Paris ]
Average in every way, really don't see what the hype is around Tiesto at all, there are no shortage of far better trance DJs around and he has been playing more or less this same set for about a year now, zero effort.
[ Posted on 2005-05-09 21:39:22 ] [email]

 tiesto_rocks! writes: fao shoayb makda [ 2005-04-24 - DJ Tiesto, Live from Disneyland Paris ]
mr makda
ive been reading all your reviews, your
criticism is very unfair, if you think you can do a better job then give a call to pete tong! i look forward to hearing all these new tracks from dj's but to you they are old; i think you should stop trainspottin and get a life mate!
[ Posted on 2005-05-09 19:19:36 ]

 User's Login
Username:

Password:

Don't have an account yet? You can create one. As a registered user you have some advantages like a theme manager, comments configuration and posting comments with your name.
 System Uptime
The system has been up for the last 374 days and has been idle 2742 of those days.
 Chat Box
If you want to chat with the people currently visiting the site, please click popup to open a seperate window, where the contents of the chat are refreshed every 30 seconds, or per your demand.
 Last 5 registered users
 wowclassicgold3
 wazzler
 neelam112
 tickles23
 piperuk
 Currently Online
1 Guest
 


All logos and trademarks in this site are property of their respective owners.
The author materials are property of their posters. The rest © Twilight ::
This page has got 37259295 pageloads since 2002-02-09.
GZIP Compression of the site is turned OFF.
Page generated in 0.04 seconds using 37 SQL queries and including 32 files.